Mega Telechargements

Qualités également disponibles pour ce film:

DVDRiP (French) WEB-DL 1080p () WEB-RiP 720p (French) WEB-RiP 1080p (French) HDRiP (French) BLURAY 720p (French) BLURAY 1080p (French) HDLiGHT 720p (French) HDLiGHT 1080p (French) DVDRiP MKV (TRUEFRENCH) DVDRiP (TRUEFRENCH) HDLiGHT 720p (TRUEFRENCH) HDLiGHT 1080p (TRUEFRENCH) BLURAY 720p (TRUEFRENCH) BLURAY 1080p (TRUEFRENCH) BLURAY 3D (TRUEFRENCH)

Avengers: Endgame


Qualité DVDRiP MKV | FRENCH


Avengers: Endgame


Avengers: Endgame

Origine : américain
Réalisation : Joe Russo
Acteur(s) : Anthony Russo, Robert Downey Jr., Chris Evans, Mark Ruffalo, Chris Hemsworth
Genre : Action, Fantastique, Aventure
Durée : 3h 01min
Année de production : 2019


Avengers: Endgame

Thanos ayant anéanti la moitié de l’univers, les Avengers restants resserrent les rangs dans ce vingt-deuxième film des Studios Marvel, grande conclusion d’un des chapitres de l’Univers Cinématographique Marvel.

Avengers: Endgame

Qualité: DVDRiP MKV
Langue: FRENCH
Taille totale: 1.06 GoAvengers.Endgame.2019.FRENCH.BDRip.x264.mkv Format : Matroska Format version : Version 4 File size : 1.07 GiB Duration : 3 h 1 min Overall bit rate : 844 kb/s Encoded date : UTC 2019-07-31 07:16:05 Writing application : mkvmerge v33.0.0 ('A Little Bit of Madness') 64-bit Writing library : libebml v1.3.7 + libmatroska v1.5.0 Video ID : 4 Format : AVC Format/Info : Advanced Video Codec Format profile : [email protected] Format settings : CABAC / 5 Ref Frames Format settings, CABAC : Yes Format settings, ReFrames : 5 frames Codec ID : V_MPEG4/ISO/AVC Duration : 3 h 1 min Bit rate : 713 kb/s Width : 720 pixels Height : 302 pixels Display aspect ratio : 2.40:1 Frame rate mode : Constant Frame rate : 23.976 (24000/1001) FPS Color space : YUV Chroma subsampling : 4:2:0 Bit depth : 8 bits Scan type : Progressive Bits/(Pixel*Frame) : 0.137 Stream size : 924 MiB (85%) Writing library : x264 core 158 r2984 3759fcb Encoding settings : cabac=1 / ref=5 / deblock=1:-3:-3 / analyse=0x3:0x113 / me=hex / subme=8 / psy=1 / psy_rd=1.00:0.15 / mixed_ref=1 / me_range=16 / chroma_me=1 / trellis=2 / 8x8dct=1 / cqm=0 / deadzone=21,11 / fast_pskip=1 / chroma_qp_offset=-3 / threads=9 / lookahead_threads=1 / sliced_threads=0 / nr=0 / decimate=1 / interlaced=0 / bluray_compat=0 / constrained_intra=0 / bframes=3 / b_pyramid=2 / b_adapt=1 / b_bias=0 / direct=3 / weightb=1 / open_gop=0 / weightp=2 / keyint=250 / keyint_min=23 / scenecut=40 / intra_refresh=0 / rc_lookahead=50 / rc=crf / mbtree=1 / crf=19.0 / qcomp=0.60 / qpmin=0 / qpmax=69 / qpstep=4 / vbv_maxrate=17500 / vbv_bufsize=17500 / crf_max=0.0 / nal_hrd=none / filler=0 / ip_ratio=1.40 / aq=1:0.60 Default : Yes Forced : No Color range : Limited Matrix coefficients : BT.709 Audio ID : 3 Format : AAC LC Format/Info : Advanced Audio Codec Low Complexity Codec ID : A_AAC-2 Duration : 3 h 1 min Bit rate : 128 kb/s Channel(s) : 2 channels Channel layout : L R Sampling rate : 48.0 kHz Frame rate : 46.875 FPS (1024 SPF) Compression mode : Lossy Stream size : 167 MiB (15%) Language : French Default : Yes Forced : No Text #1 ID : 1 Format : UTF-8 Codec ID : S_TEXT/UTF8 Codec ID/Info : UTF-8 Plain Text Duration : 2 h 37 min Bit rate : 0 b/s Count of elements : 49 Stream size : 1.08 KiB (0%) Title : Forced Language : French Default : Yes Forced : No Text #2 ID : 2 Format : UTF-8 Codec ID : S_TEXT/UTF8 Codec ID/Info : UTF-8 Plain Text Duration : 2 h 52 min Bit rate : 47 b/s Count of elements : 2223 Stream size : 59.6 KiB (0%) Title : French Language : French Default : No Forced : No

Nom de la release: Avengers.Endgame.2019.FRENCH.BDRip.x264



Avengers: Endgame





1fichier
Télécharger

Turbobit
Télécharger

Uptobox
Télécharger



Publié : 30-07-2019, 17:25


Information

Users of Guests are not allowed to comment this publication.